#TITLE:4 Minutes;
#SUBTITLE:;
#ARTIST:Madonna ft Justin Timberlake & Timbaland;
#TITLETRANSLIT:4 Minutes;
#SUBTITLETRANSLIT:;
#ARTISTTRANSLIT:Madonna ft Justin Timberlake & Timbaland;
#CREDIT:;
#BANNER:;
#BACKGROUND:;
#LYRICSPATH:;
#CDTITLE:pm4cd.png;
#MUSIC:4 Minutes.mp3;
#OFFSET:0.300;
#SAMPLESTART:74.010;
#SAMPLELENGTH:20.000;
#SELECTABLE:YES;
#BPMS:0.000=113.000;
#STOPS:;
#BGCHANGES:;
// cache tags:
#FIRSTBEAT:3.000;
#LASTBEAT:275.500;
#SONGFILENAME:Songs/Music V.I.P ^_^/4 Minutes/4 Minutes.sm;
#HASMUSIC:1;
#HASBANNER:0;
#MUSICLENGTH:147.913;
// end cache tags

//---------------dance-single - ----------------
#NOTES:
     dance-single:
     :
     Hard:
     11:
     0.914,0.955,1.000,0.291,0.548,552.000,296.000,43.000,0.000,95.000:
0000
0000
0000
0000
0000
0000
1000
1000
,
2000
0000
0000
0000
,
3002
0000
0000
0000
,
0203
0000
0000
0000
,
0320
0000
0000
0000
,
1031
0000
0000
0010
1100
0000
0001
0000
0000
0000
1000
0000
1100
0000
0000
0000
,
0011
0000
0000
0001
1010
0000
0010
0000
0000
0000
0100
0000
0110
0000
0000
0000
,
1001
0000
0000
0100
0011
0000
1010
0000
0000
0000
0100
0000
0101
0000
0000
0000
,
1100
0000
0000
0010
1001
0000
0011
0000
0000
0000
0100
0000
1010
0000
0000
0000
,
1001
0000
0000
0100
0011
0000
1001
0000
0000
0000
0100
0000
0011
0000
0000
0000
,
0101
0000
0010
0000
0001
0000
1010
0101
1010
0101
1010
0000
0200
0000
0010
0000
,
2000
0300
0002
3000
0200
0003
0020
0300
,
2000
0030
0002
3000
0200
0003
0020
0300
,
0002
0030
2000
0003
0020
3001
0200
0030
,
0002
0300
2000
0003
0020
3001
0200
0030
,
1001
0000
0301
0010
1101
0010
0001
0000
0000
0000
1100
0000
0110
0000
0011
0000
,
1001
0000
1000
0100
1011
0100
1000
0000
0000
0000
0011
0000
0110
0000
1100
0000
,
0011
0000
1000
0010
1101
0010
1000
0000
0000
0000
1010
0000
0101
0000
0011
0000
,
1100
0000
0001
0100
1011
0100
0001
0000
0000
0000
0101
0000
1010
0000
1100
0000
,
0101
0010
0100
1000
0011
1000
0011
0000
0000
0000
1100
0000
0110
0000
0011
0000
,
1010
0100
0010
0001
1100
0001
1100
0000
0000
0000
0011
0000
0110
0000
1100
0000
,
1001
0100
0010
0100
1001
0010
0101
0000
0000
0000
0011
0000
1100
0000
0000
0000
,
1001
0010
0100
0010
1001
0100
1010
0000
0000
0000
1100
0000
0011
0000
0000
0000
,
1100
0010
0100
0001
1010
0100
1001
0000
0000
0000
1010
0000
0011
0000
0110
0000
,
0011
0100
0010
1000
0101
0010
1001
0000
0000
0000
0101
0000
1100
0000
0110
0000
,
1010
0001
1000
0010
0101
1000
0110
0000
0000
0000
0011
0000
1010
0000
0000
0000
,
0101
1000
0001
0100
1010
0001
0110
0000
0000
0000
1100
0000
0101
0000
0000
0000
,
1100
0001
0010
1000
0011
0100
0011
0000
0000
0000
1100
0000
0101
0000
1010
0000
,
0011
1000
0100
0001
1100
0010
1100
0000
0000
0000
0011
0000
1010
0000
0101
0000
,
0110
0001
1000
0010
0101
0010
1100
0000
0000
0000
0110
0000
1010
0000
0000
0000
,
0110
1000
0001
0100
1010
0100
0011
0000
0000
0000
0110
0000
0101
0000
0000
0000
,
1010
0100
0001
0010
1001
0100
0011
0000
0000
0000
1100
0000
0101
0000
0110
0000
,
0101
0010
1000
0100
1001
0010
1100
0000
0000
0000
0011
0000
1010
0000
0110
0000
,
0011
1000
0100
0010
1001
0010
1100
0000
0000
0000
1001
0000
0110
0000
0000
0000
,
1100
0001
0010
0100
1001
0001
0110
0010
1001
1000
0110
0100
1010
0101
1010
0101
,
2020
0000
0000
0100
0001
0000
0101
0000
0000
0000
0101
0000
0101
0000
3030
0000
,
0202
0000
0000
0010
1000
0000
1010
0000
0000
0000
1010
0000
1010
0000
0313
0010
,
0220
0000
0000
1000
0001
0000
1001
0000
0000
0000
1001
0000
1001
0000
0330
0000
,
2002
0000
0000
0010
0100
0000
0110
0000
0000
0000
0110
0010
0110
0100
3113
0010
,
2200
0000
0000
0010
0001
0000
0011
0000
0000
0000
0011
0000
0011
0000
3300
0000
,
0022
0000
0000
1000
0100
0000
1100
0000
0000
0000
1100
0000
1100
0000
1033
1000
,
2020
0000
0000
0100
0001
0000
0101
0000
0000
0000
0101
0000
0101
0000
3030
0000
,
0202
0000
0000
1000
0010
0000
1010
0000
0000
0000
1010
1000
1010
0010
1313
1000
,
1010
0100
0010
0001
1100
0010
0101
0000
0000
0000
0101
0000
1010
0100
0010
0001
,
1000
0000
0001
0010
0100
1000
0100
0010
0000
0001
1000
0000
0101
0000
0010
0000
,
1100
0010
0001
1000
0101
0010
1001
0000
0000
0000
1001
0000
1001
0000
0000
0000
,
0000
1100
0000
0011
0011
0000
1010
0101
0000
1100
0011
0000
1001
0000
0010
0000
,
1100
0010
1000
0001
0110
1000
0011
0000
0000
0000
0011
0000
1100
0010
1000
0001
,
0100
0000
0001
1000
0010
0100
0010
1000
0000
0001
0100
0000
0011
0000
1000
0000
,
0110
1000
0001
0100
0011
1000
0101
0000
0000
0000
0101
0000
0101
0010
1000
0001
,
1000
0000
0100
0000
1001
0010
0000
1100
0000
0110
1001
0000
0101
1010
0101
1010
,
0101
0000
1100
0011
1100
0010
1001
0010
1100
0000
1001
0000
0000
0000
0001
0000
,
2000
0000
0000
0010
0000
0000
3001
0000
0000
0000
1000
0100
0010
0001
1000
0000
,
0000
0000
2002
0000
0000
0000
0000
0000
0000
0000
0110
0000
3113
0000
1000
0100
,
1011
0000
0001
0010
1101
0000
1000
0100
1011
0000
0001
0010
1101
0010
0010
0000
,
1010
0000
0011
1100
0011
0100
1001
0100
1010
0000
1001
0000
0000
0000
1000
0000
,
0002
0000
0000
0100
0000
0000
1003
0000
0000
0000
0001
0010
0100
1000
0001
0000
,
0000
0000
2002
0000
0000
0000
0000
0000
0000
0000
0000
0000
3003
0000
0001
0010
,
1101
0000
1000
0100
1011
0000
0001
0010
1101
0000
1000
0100
1011
0000
0000
0000
,
0000
1111
0000
0011
1100
0000
0111
0000
0000
0000
1100
0000
1111
0000
0000
0000
,
1111
0000
0000
0011
1100
0000
0111
0000
0000
0000
1100
0000
1111
0000
0000
0000
,
1111
0000
0000
1001
0110
0000
1011
0000
0000
0000
0110
0000
1111
0000
1000
1000
,
0111
0000
0001
0001
1110
0000
1000
1000
0111
0000
0001
0001
1110
0000
1000
1000
,
1111
0000
0000
1001
0110
0000
1101
0000
0000
0000
0110
0000
1111
0000
0000
0000
,
1111
0000
0000
0101
1010
0000
1101
0000
0000
0000
1010
0000
1111
0000
0000
0000
,
1111
0000
0000
1010
0101
0000
1011
0000
0000
0000
0101
0000
1111
0000
0001
1000
,
1110
0000
1000
0001
0111
0000
0001
1000
1110
0000
1000
0001
0111
0000
0000
0000
,
0000
1111
0000
0011
1100
0000
0111
0000
0000
0000
1100
0000
1111
0000
0000
0000
,
1001
1001
1001
0000
1001
1001
1001
0000
1001
1001
1001
0000
1001
1001
1001
0000
;

//---------------dance-single - ----------------
#NOTES:
     dance-single:
     :
     Medium:
     4:
     0.456,0.466,0.466,0.068,0.145,393.000,69.000,10.000,0.000,0.000:
0000
0000
0000
0000
0000
0000
1000
1000
,
1000
0000
0000
0000
,
0001
0000
0000
0000
,
0100
0000
0000
0000
,
0010
0000
0000
0000
,
1000
0000
0000
0010
0100
0000
0001
0000
0000
0000
1000
0000
0100
0000
0000
0000
,
0001
0000
0000
0001
1000
0000
0010
0000
0000
0000
0100
0000
0010
0000
0000
0000
,
0001
0000
0000
0100
0010
0000
1000
0000
0000
0000
0100
0000
0001
0000
0000
0000
,
1000
0000
0000
0010
1000
0000
0001
0000
0000
0000
0100
0000
0010
0000
0000
0000
,
0001
0000
0000
0100
0010
0000
1000
0000
0000
0000
0100
0000
0001
0000
0000
0000
,
0001
0001
1000
1000
0100
0100
0010
0010
,
1000
0001
0100
0010
,
1000
0001
0100
0010
,
0001
0000
1000
0000
0010
0001
0100
0000
,
0001
0000
1000
0000
0010
0001
0100
0000
,
1001
0000
0000
0010
0001
0000
0100
0000
0000
0000
1000
0000
0110
0000
0000
0000
,
1001
0000
0000
0100
1000
0000
1000
0000
0000
0000
0001
0000
0110
0000
0000
0000
,
0011
0000
0000
0010
1000
0000
1000
0000
0000
0000
1000
0000
0101
0000
0000
0000
,
1100
0000
0000
0100
0001
0000
0001
0000
0000
0000
0100
0000
1010
0000
0000
0000
,
0101
0000
0000
1000
0001
0000
0010
0000
0000
0000
0100
0000
0110
0000
0000
0000
,
1010
0000
0000
0001
1000
0000
0100
0000
0000
0000
0010
0000
0110
0000
0000
0000
,
1001
0000
0000
0100
0001
0000
0100
0000
0000
0000
0010
0000
1100
0000
0000
0000
,
1001
0000
0000
0010
1000
0000
0010
0000
0000
0000
0100
0000
0011
0000
0000
0000
,
1100
0000
0000
0001
0010
0000
0001
0000
0000
0000
1000
0000
0010
0000
0100
0000
,
0011
0000
0000
1000
0100
0000
1000
0000
0000
0000
0001
0000
0100
0000
0010
0000
,
1100
0000
0000
0010
0001
0000
0010
0000
0000
0000
0010
0000
1010
0000
0000
0000
,
0101
0000
0000
0100
1000
0000
0100
0000
0000
0000
0100
0000
0101
0000
0000
0000
,
1100
0000
0000
1000
0001
0000
0010
0000
0000
0000
1000
0000
0100
0000
0010
0000
,
0011
0000
0000
0001
1000
0000
1000
0000
0000
0000
0001
0000
0010
0000
0100
0000
,
0110
0000
0000
0010
0100
0000
1000
0000
0000
0000
0100
0000
1010
0000
0000
0000
,
0110
0000
0000
0100
0010
0000
0001
0000
0000
0000
0010
0000
0101
0000
0000
0000
,
1010
0000
0000
0010
1000
0000
0010
0000
0000
0000
0100
0000
0001
0000
0100
0000
,
0101
0000
0000
0100
0001
0000
0100
0000
0000
0000
0010
0000
1000
0000
0010
0000
,
0011
0000
0000
0010
1000
0000
1000
0000
0000
0000
1000
0000
0110
0000
0000
0000
,
1100
0000
1001
0110
0000
0101
1010
0101
,
1000
0010
1000
0010
,
0100
0001
0100
0001
,
0100
0000
0010
0010
0100
0000
0010
0000
,
1000
1000
0001
0001
1000
1000
0001
0001
,
1000
0100
0001
0010
,
1000
0000
0010
0100
0100
0000
0001
0000
,
1000
0000
0001
0001
0100
0000
0010
0000
,
0001
0001
0010
0010
1000
1000
0100
0100
,
0002
0000
1000
0003
0000
0101
1010
0000
,
1000
0000
0100
0010
0000
0001
0010
0100
,
2000
0000
0001
3000
0000
1010
0101
0000
,
0001
0000
0010
0100
0000
1000
0100
0010
,
0200
0000
0001
0300
0000
0110
1001
0000
,
0001
0000
0010
1000
0000
0100
1000
0010
,
0020
0000
1000
0030
0000
0110
1001
0000
,
1000
0000
0100
0001
0000
0010
0001
1000
,
0100
1000
0010
0001
1000
0100
0001
0010
,
2000
0000
0000
0010
0000
0000
3001
0000
0000
0000
1000
0100
0010
0001
1000
0000
,
0000
2002
0000
0000
0000
0000
3003
1000
,
1000
0001
0001
1000
1000
0001
0001
0000
,
0010
0001
0100
1000
0001
0010
1000
0100
,
0002
0000
0000
0100
0000
0000
1003
0000
0000
0000
0001
0010
0100
1000
0001
0000
,
0000
2002
0000
0000
0000
0000
3003
0001
,
0001
1000
1000
0001
0001
1000
1000
0000
,
0000
1001
0000
0001
1000
0000
0110
0000
0000
0000
0100
0000
1001
0000
0000
0000
,
1001
0000
0000
0001
1000
0000
0110
0000
0000
0000
0010
0000
1001
0000
0000
0000
,
0110
0000
0000
0001
0010
0000
1010
0000
0000
0000
0010
0000
0011
0000
1000
0000
,
1000
0001
0001
1000
1000
0001
0001
1000
,
0101
0000
0000
0100
0001
0000
1010
0000
0000
0000
0010
0000
0101
0000
0000
0000
,
0101
0000
0000
0100
0001
0000
1010
0000
0000
0000
1000
0000
0101
0000
0000
0000
,
1010
0000
0000
0100
1000
0000
1001
0000
0000
0000
1000
0000
1100
0000
0001
0000
,
0001
0100
0100
0001
0001
0100
0100
0001
,
0000
1001
0000
0001
1000
0000
0110
0000
0000
0000
0100
0000
0011
0000
0000
0000
,
1000
1000
1000
0000
1000
1000
1000
0000
1000
1000
1000
0000
1000
1000
1000
0000
;

//---------------dance-single - ----------------
#NOTES:
     dance-single:
     :
     Easy:
     2:
     0.370,0.373,0.210,0.027,0.014,348.000,31.000,4.000,0.000,0.000:
0000
0000
0000
0000
0000
0000
1000
1000
,
1000
0000
0000
0000
,
0001
0000
0000
0000
,
0100
0000
0000
0000
,
0010
0000
0000
0000
,
1000
0000
0100
0000
0000
1000
0100
0000
,
0001
0000
1000
0000
0000
0100
0010
0000
,
0001
0000
0010
0000
0000
0100
0001
0000
,
1000
0000
1000
0000
0000
0100
0010
0000
,
0001
0000
0010
0000
0000
0100
0001
0000
,
0001
0001
1000
1000
0001
0001
1000
1000
,
1000
0001
0100
0010
,
1000
0001
0100
0010
,
0001
0000
1000
0000
0010
0001
0100
0000
,
0001
0000
1000
0000
0010
0001
0100
0000
,
1001
0000
0001
0100
0000
1000
0010
0000
,
1001
0000
1000
1000
0000
0001
0100
0000
,
0011
0000
1000
1000
0000
1000
0100
0000
,
1100
0000
0001
0001
0000
0100
0010
0000
,
0101
0000
0001
0010
0000
0100
0010
0000
,
1010
0000
1000
0100
0000
0010
0100
0000
,
1001
0000
0001
0100
0000
0010
1000
0000
,
1001
0000
1000
0010
0000
0100
0001
0000
,
1100
0000
0010
0001
0000
1000
0010
0100
,
0011
0000
0100
1000
0000
0001
0100
0010
,
1100
0000
0001
0010
0000
0010
1000
0000
,
0101
0000
1000
0100
0000
0100
0001
0000
,
1100
0000
0001
0010
0000
1000
0100
0010
,
0011
0000
0001
1000
0000
0001
0010
0100
,
0110
0000
0010
1000
0000
0100
1000
0000
,
0110
0000
0100
0001
0000
0010
0001
0000
,
1010
0000
1000
0010
0000
0100
0001
0100
,
0101
0000
0001
0100
0000
0010
1000
0010
,
0011
0000
0010
1000
0000
1000
0010
0000
,
1100
0000
0001
0100
0000
0001
1000
0000
,
1000
0010
1000
0010
,
0100
0001
0100
0001
,
0100
0000
0010
0010
0100
0000
0010
0000
,
1000
1000
0001
0001
1000
1000
0001
0001
,
1000
0100
0001
0010
,
1000
0000
0010
0100
0100
0000
0001
0000
,
1000
0000
0001
0001
0100
0000
0010
0000
,
0001
0001
0010
0010
1000
1000
0100
0100
,
0001
0000
1000
0000
0000
0001
0010
0000
,
1000
0000
0100
0010
0000
0001
0010
0100
,
1000
0000
0001
0000
0000
1000
0100
0000
,
0001
0000
0010
0100
0000
1000
0100
0010
,
0100
0000
0001
0000
0000
0010
0001
0000
,
0001
0000
0010
1000
0000
0100
1000
0010
,
0010
0000
1000
0000
0000
0100
1000
0000
,
1000
0000
0100
0001
0000
0010
0001
1000
,
0100
1000
0010
0001
1000
0100
0001
0010
,
1000
0000
0000
0010
0000
0000
0001
0000
0000
0000
1000
0000
0110
0000
0001
0000
,
0000
2002
0000
0000
0000
0000
3003
1000
,
1000
0001
0001
1000
1000
0001
0001
0000
,
0010
0001
0100
1000
0001
0010
1000
0100
,
0001
0000
0000
0100
0000
0000
1000
0000
0000
0000
0001
0000
0110
0000
1000
0000
,
0000
2002
0000
0000
0000
0000
3003
0001
,
0001
1000
1000
0001
0001
1000
1000
0000
,
0000
0110
0000
0000
1000
0000
0010
0000
0000
0000
0100
0000
0001
0000
0000
0000
,
1001
0000
0001
0100
0000
0010
1000
0000
,
0110
0000
0010
0001
0000
0010
0001
1000
,
1000
0001
0001
1000
1000
0001
0001
1000
,
0101
0000
0100
1000
0000
0010
0100
0000
,
0101
0000
0100
0010
0000
1000
0100
0000
,
1010
0000
0100
0001
0000
1000
0100
0001
,
0001
0100
0100
0001
0001
0100
0100
0001
,
0000
1001
0000
0000
1000
0000
0010
0000
0000
0000
0100
0000
0001
0000
0000
0000
,
1000
1000
1000
1000
1000
1000
1000
1000
;
